Verified torrent Mr. & Mrs. Smith DC (2005) 720p [Hindi Dubbed + English] HDRip x264 AC3 ESub by Full4movies


    Seeders : 0      Leechers : 0


Note :

Please Update (Trackers Info) Before Start Torrents Downloading to See Updated Seeders And Leechers for Batter Download Speed.

Trackers List

Tracker NameLast CheckStatusSeedersLeechers




Torrent File Content (1 file)


     Mr. & Mrs. Smith DC (2005) 720p [Hindi Dubbed + English] HDRip x264 AC3 ESub by Full4movies.mkv -
1.28 GB



Description



https://extraimage.net/images/2018/08/11/7149fd3eb484eb39f833fe8fff296149.jpg


General
Complete name : Mr. & Mrs. Smith DC (2005) 720p [Hindi Dubbed + English] HDRip x264 AC3 ESub by Full4movies.mkv
Format : Matroska
Format version : Version 4 / Version 2
File size : 1.28 GiB
Duration : 2 h 5 min
Overall bit rate : 1 462 kb/s
Movie name : www.Full4moveis.co
Encoded date : UTC 2018-08-10 07:39:14
Writing application : mkvmerge v8.1.0 ('Psychedelic Postcard') 32bit
Writing library : libebml v1.3.1 + libmatroska v1.4.2

Video
ID : 1
Format : AVC
Format/Info : Advanced Video Codec
Format profile : [email protected]
Format settings, CABAC : Yes
Format settings, RefFrames : 8 frames
Codec ID : V_MPEG4/ISO/AVC
Duration : 2 h 5 min
Bit rate : 1 013 kb/s
Width : 1 280 pixels
Height : 544 pixels
Display aspect ratio : 2.35:1
Frame rate mode : Constant
Frame rate : 23.976 (24000/1001) FPS
Color space : YUV
Chroma subsampling : 4:2:0
Bit depth : 8 bits
Scan type : Progressive
Bits/(Pixel*Frame) : 0.061
Stream size : 910 MiB (69%)
Writing library : x264 core 152 r2851 ba24899
Language : English
Default : Yes
Forced : Yes
Color range : Limited
Color primaries : BT.709
Transfer characteristics : BT.709
Matrix coefficients : BT.709

Audio #1
ID : 2
Format : AC-3
Format/Info : Audio Coding 3
Format settings, Endianness : Big
Codec ID : A_AC3
Duration : 2 h 5 min
Bit rate mode : Constant
Bit rate : 224 kb/s
Channel(s) : 2 channels
Channel positions : Front: L R
Sampling rate : 48.0 kHz
Frame rate : 31.250 FPS (1536 SPF)
Bit depth : 16 bits
Compression mode : Lossy
Stream size : 201 MiB (15%)
Language : Hindi
Service kind : Complete Main
Default : Yes
Forced : Yes

Audio #2
ID : 3
Format : AC-3
Format/Info : Audio Coding 3
Format settings, Endianness : Big
Codec ID : A_AC3
Duration : 2 h 5 min
Bit rate mode : Constant
Bit rate : 224 kb/s
Channel(s) : 6 channels
Channel positions : Front: L C R, Side: L R, LFE
Sampling rate : 48.0 kHz
Frame rate : 31.250 FPS (1536 SPF)
Bit depth : 16 bits
Compression mode : Lossy
Stream size : 201 MiB (15%)
Language : English
Service kind : Complete Main
Default : No
Forced : No

Text
ID : 4
Format : UTF-8
Codec ID : S_TEXT/UTF8
Codec ID/Info : UTF-8 Plain Text
Duration : 1 h 59 min
Bit rate : 43 b/s
Count of elements : 1106
Stream size : 38.2 KiB (0%)
Language : English
Default : Yes
Forced : Yes

Screen Shoots
https://extraimage.net/images/2018/08/11/2eb52ed3c5d64f36d4030b1b5f4ed3b0.jpg

Related torrents

Torrent NameAddedSizeSeedLeechHealth
Verified torrent
13 days ago - in Movies913.16 MB11
Verified torrent
Last Month - in Movies1.18 GB159
Verified torrent
Last Month - in Movies938.01 MB134
Verified torrent
Last Month - in Movies733.54 MB63
Verified torrent
Last Month - in Movies1.06 GB2513
Verified torrent
Last Month - in Movies1.05 GB183

Note :

Feel free to post any comments about this torrent, including links to Subtitle, samples, screenshots, or any other relevant information. Please Dont Download anything from Comments, And Links to Streaming Sites like Watch Online Mr. & Mrs. Smith DC (2005) 720p [Hindi Dubbed + English] HDRip x264 AC3 ESub by Full4movies Full Movie, Fmovies, 123Movies, Putlocker, Netflix, etc.

Comments (0 Comments)




Please login or create a FREE account to post comments
Quick Browse
Movies
TV shows
Music
Games
Applications
Anime
Other

Latest Articles

Friends

Latest Searches