Tera Intezaar (2017) Hindi HDRip x264 AC3 900MB [HDFilmBoss]


    Seeders : 0      Leechers : 0


Note :

Please Update (Trackers Info) Before Start Torrents Downloading to See Updated Seeders And Leechers for Batter Download Speed.

Trackers List

Tracker NameLast CheckStatusSeedersLeechers




Torrent File Content (1 file)


     Tera Intezaar (2017) Hindi HDRip x264 AC3 900MB [HDFilmBoss.Com].mp4 -
890.53 MB



Description



General
Complete name :Tera Intezaar (2017) Hindi HDRip x264 AC3 900MB [HDFilmBoss.Com].mp4
Format : MPEG-4
Format profile : Base Media
Codec ID : isom (isom/iso2/avc1/mp41)
File size : 891 MiB
Duration : 1 h 40 min
Overall bit rate : 1 239 kb/s
Writing application : Lavf58.12.100

Video
ID : 1
Format : AVC
Format/Info : Advanced Video Codec
Format profile : [email protected]
Format settings : CABAC / 4 Ref Frames
Format settings, CABAC : Yes
Format settings, RefFrames : 4 frames
Codec ID : avc1
Codec ID/Info : Advanced Video Coding
Duration : 1 h 40 min
Bit rate : 1 099 kb/s
Width : 720 pixels
Height : 304 pixels
Display aspect ratio : 2.35:1
Frame rate mode : Constant
Frame rate : 25.000 FPS
Color space : YUV
Chroma subsampling : 4:2:0
Bit depth : 8 bits
Scan type : Progressive
Bits/(Pixel*Frame) : 0.201
Stream size : 793 MiB (89%)
Writing library : x264 core 148 r2643 5c65704

Audio
ID : 2
Format : AAC
Format/Info : Advanced Audio Codec
Format profile : LC
Codec ID : mp4a-40-2
Duration : 1 h 40 min
Bit rate mode : Constant
Bit rate : 128 kb/s
Channel(s) : 2 channels
Channel positions : Front: L R
Sampling rate : 44.1 kHz
Frame rate : 43.066 FPS (1024 SPF)
Compression mode : Lossy
Stream size : 92.0 MiB (10%)
Default : Yes
Alternate group : 1


[url]https://hdfilmboss.net/[/url]
NO ADS Movie
https://i.imgur.com/UdUVrQd.png

https://i.imgur.com/ti9kIXv.gif

https://i.imgur.com/G0ZduDR.jpg

https://i.imgur.com/VWjxZhY.jpg

https://i.imgur.com/uj0NHrH.jpg

Related torrents

Torrent NameAddedSizeSeedLeechHealth
8 days ago - in Movies700.13 MB14
8 months ago - in Other794.11 MB3115
8 months ago - in Movies698.43 MB135
8 months ago - in Movies698.43 MB83
8 months ago - in Movies705.77 MB115114
8 months ago - in Movies698.62 MB12244

Note :

Feel free to post any comments about this torrent, including links to Subtitle, samples, screenshots, or any other relevant information. Please Dont Download anything from Comments, And Links to Streaming Sites like Watch Online Tera Intezaar (2017) Hindi HDRip x264 AC3 900MB [HDFilmBoss] Full Movie, Fmovies, 123Movies, Putlocker, Netflix, etc.

Comments (0 Comments)




Please login or create a FREE account to post comments
Quick Browse
Movies
TV shows
Music
Games
Applications
Anime
Other

Latest Articles

Friends

Latest Searches